  0
SECTION
  2
HEADER
  9
$ACADVER
  1
AC1009
  9
$INSBASE
 10
41.344505471067578
 20
1.1407516228730401
 30
0.0
  9
$EXTMIN
 10
30.594505471067581
 20
-11.086559478656589
 30
0.0
  9
$EXTMAX
 10
61.178988200154649
 20
20.14075162287304
 30
0.0
  9
$LIMMIN
 10
-150.0
 20
-150.0
  9
$LIMMAX
 10
150.0
 20
150.0
  9
$ORTHOMODE
 70
     0
  9
$REGENMODE
 70
     1
  9
$FILLMODE
 70
     1
  9
$QTEXTMODE
 70
     0
  9
$MIRRTEXT
 70
     0
  9
$DRAGMODE
 70
     2
  9
$LTSCALE
 40
1.0
  9
$OSMODE
 70
   111
  9
$ATTMODE
 70
     1
  9
$TEXTSIZE
 40
3.5
  9
$TRACEWID
 40
1.0
  9
$TEXTSTYLE
  7
BESCHLAG
  9
$CLAYER
  8
0
  9
$CELTYPE
  6
BYLAYER
  9
$CECOLOR
 62
   256
  9
$DIMSCALE
 40
1.0
  9
$DIMASZ
 40
2.0
  9
$DIMEXO
 40
2.0
  9
$DIMDLI
 40
0.0
  9
$DIMRND
 40
0.0
  9
$DIMDLE
 40
1.0
  9
$DIMEXE
 40
1.0
  9
$DIMTP
 40
0.0
  9
$DIMTM
 40
0.0
  9
$DIMTXT
 40
3.5
  9
$DIMCEN
 40
0.0
  9
$DIMTSZ
 40
0.0
  9
$DIMTOL
 70
     0
  9
$DIMLIM
 70
     0
  9
$DIMTIH
 70
     0
  9
$DIMTOH
 70
     0
  9
$DIMSE1
 70
     0
  9
$DIMSE2
 70
     0
  9
$DIMTAD
 70
     1
  9
$DIMZIN
 70
     8
  9
$DIMBLK
  1

  9
$DIMASO
 70
     1
  9
$DIMSHO
 70
     1
  9
$DIMPOST
  1

  9
$DIMAPOST
  1

  9
$DIMALT
 70
     0
  9
$DIMALTD
 70
     2
  9
$DIMALTF
 40
0.039370078740157
  9
$DIMLFAC
 40
1.0
  9
$DIMTOFL
 70
     1
  9
$DIMTVP
 40
0.0
  9
$DIMTIX
 70
     1
  9
$DIMSOXD
 70
     0
  9
$DIMSAH
 70
     1
  9
$DIMBLK1
  1
OBLIQUE
  9
$DIMBLK2
  1
OBLIQUE
  9
$DIMSTYLE
  2
OPO-SSTRICH
  9
$DIMCLRD
 70
   256
  9
$DIMCLRE
 70
   256
  9
$DIMCLRT
 70
   256
  9
$DIMTFAC
 40
0.7114285714285716
  9
$DIMGAP
 40
1.0
  9
$LUNITS
 70
     2
  9
$LUPREC
 70
     1
  9
$SKETCHINC
 40
1.0
  9
$FILLETRAD
 40
0.0
  9
$AUNITS
 70
     0
  9
$AUPREC
 70
     1
  9
$MENU
  1
D:\ACL_CGWG\CGTAB13
  9
$ELEVATION
 40
0.0
  9
$PELEVATION
 40
0.0
  9
$THICKNESS
 40
0.0
  9
$LIMCHECK
 70
     0
  9
$BLIPMODE
 70
     0
  9
$CHAMFERA
 40
1.0
  9
$CHAMFERB
 40
1.0
  9
$SKPOLY
 70
     0
  9
$TDCREATE
 40
2451739.906316007
  9
$TDUPDATE
 40
2452087.646924363
  9
$TDINDWG
 40
0.0015763889
  9
$TDUSRTIMER
 40
0.0015763889
  9
$USRTIMER
 70
     1
  9
$ANGBASE
 50
0.0
  9
$ANGDIR
 70
     0
  9
$PDMODE
 70
    35
  9
$PDSIZE
 40
5.0
  9
$PLINEWID
 40
0.0
  9
$COORDS
 70
     1
  9
$SPLFRAME
 70
     0
  9
$SPLINETYPE
 70
     6
  9
$SPLINESEGS
 70
     8
  9
$ATTDIA
 70
     1
  9
$ATTREQ
 70
     1
  9
$HANDLING
 70
-16383
  9
$HANDSEED
  5
CA
  9
$SURFTAB1
 70
    12
  9
$SURFTAB2
 70
    12
  9
$SURFTYPE
 70
     6
  9
$SURFU
 70
    12
  9
$SURFV
 70
    12
  9
$UCSNAME
  2

  9
$UCSORG
 10
0.0
 20
0.0
 30
0.0
  9
$UCSXDIR
 10
1.0
 20
0.0
 30
0.0
  9
$UCSYDIR
 10
0.0
 20
1.0
 30
0.0
  9
$PUCSNAME
  2

  9
$PUCSORG
 10
0.0
 20
0.0
 30
0.0
  9
$PUCSXDIR
 10
1.0
 20
0.0
 30
0.0
  9
$PUCSYDIR
 10
0.0
 20
1.0
 30
0.0
  9
$USERI1
 70
     0
  9
$USERI2
 70
     0
  9
$USERI3
 70
     0
  9
$USERI4
 70
     0
  9
$USERI5
 70
     0
  9
$USERR1
 40
0.0
  9
$USERR2
 40
0.0
  9
$USERR3
 40
0.0
  9
$USERR4
 40
0.0
  9
$USERR5
 40
0.0
  9
$WORLDVIEW
 70
     1
  9
$SHADEDGE
 70
     3
  9
$SHADEDIF
 70
    70
  9
$TILEMODE
 70
     1
  9
$MAXACTVP
 70
    48
  9
$PLIMCHECK
 70
     0
  9
$PEXTMIN
 10
1.0000000000000000E+020
 20
1.0000000000000000E+020
 30
1.0000000000000000E+020
  9
$PEXTMAX
 10
-1.0000000000000000E+020
 20
-1.0000000000000000E+020
 30
-1.0000000000000000E+020
  9
$PLIMMIN
 10
0.0
 20
0.0
  9
$PLIMMAX
 10
420.0
 20
297.0
  9
$UNITMODE
 70
     0
  9
$VISRETAIN
 70
     1
  9
$PLINEGEN
 70
     0
  9
$PSLTSCALE
 70
     1
  0
ENDSEC
  0
SECTION
  2
TABLES
  0
TABLE
  2
VPORT
 70
     2
  0
VPORT
  2
*ACTIVE
 70
     0
 10
0.0
 20
0.0
 11
1.0
 21
1.0
 12
45.879364765574451
 22
4.5204169635200619
 13
0.0
 23
0.0
 14
0.5
 24
0.5
 15
10.0
 25
10.0
 16
0.0
 26
0.0
 36
1.0
 17
0.0
 27
0.0
 37
0.0
 40
31.49602959131559
 41
1.6070460704607039
 42
50.0
 43
0.0
 44
0.0
 50
0.0
 51
0.0
 71
     0
 72
   800
 73
     1
 74
     1
 75
     0
 76
     0
 77
     0
 78
     0
  0
ENDTAB
  0
TABLE
  2
LTYPE
 70
     1
  0
LTYPE
  2
CONTINUOUS
 70
     0
  3
_______________________________________________
 72
    65
 73
     2
 40
1.0
 49
1.0
 49
0.0
  0
ENDTAB
  0
TABLE
  2
LAYER
 70
     5
  0
LAYER
  2
0
 70
     0
 62
    30
  6
CONTINUOUS
  0
LAYER
  2
1
 70
     0
 62
     2
  6
CONTINUOUS
  0
LAYER
  2
5
 70
     0
 62
     1
  6
CONTINUOUS
  0
LAYER
  2
6
 70
     0
 62
     3
  6
CONTINUOUS
  0
LAYER
  2
DEFPOINTS
 70
     0
 62
     7
  6
CONTINUOUS
  0
ENDTAB
  0
TABLE
  2
STYLE
 70
     2
  0
STYLE
  2
STANDARD
 70
     0
 40
0.0
 41
1.0
 50
0.0
 71
     0
 42
2.5
  3
txt
  4

  0
STYLE
  2
BESCHLAG
 70
     0
 40
0.0
 41
1.0
 50
0.0
 71
     0
 42
3.5
  3
txt
  4

  0
ENDTAB
  0
TABLE
  2
VIEW
 70
     0
  0
ENDTAB
  0
TABLE
  2
UCS
 70
     0
  0
ENDTAB
  0
TABLE
  2
APPID
 70
     1
  0
APPID
  2
ACAD
 70
     0
  0
ENDTAB
  0
TABLE
  2
DIMSTYLE
 70
     1
  0
DIMSTYLE
  2
OPO-SSTRICH
 70
     0
  3

  4

  5

  6
OBLIQUE
  7
OBLIQUE
 40
1.0
 41
2.0
 42
2.0
 43
0.0
 44
1.0
 45
0.0
 46
1.0
 47
0.0
 48
0.0
140
3.5
141
0.0
142
0.0
143
0.039370078740157
144
1.0
145
0.0
146
0.7114285714285716
147
1.0
 71
     0
 72
     0
 73
     0
 74
     0
 75
     0
 76
     0
 77
     1
 78
     8
170
     0
171
     2
172
     1
173
     1
174
     1
175
     0
176
   256
177
   256
178
   256
  0
ENDTAB
  0
ENDSEC
  0
SECTION
  2
BLOCKS
  0
BLOCK
  8
0
  2
$MODEL_SPACE
 70
     0
 10
0.0
 20
0.0
 30
0.0
  3
$MODEL_SPACE
  1

  0
ENDBLK
  5
B
  8
0
  0
BLOCK
 67
     1
  8
0
  2
$PAPER_SPACE
 70
     0
 10
0.0
 20
0.0
 30
0.0
  3
$PAPER_SPACE
  1

  0
ENDBLK
  5
12
 67
     1
  8
0
  0
BLOCK
  8
0
  2
_OBLIQUE
 70
     0
 10
0.0
 20
0.0
 30
0.0
  3
_OBLIQUE
  1

  0
LINE
  5
28
  8
0
 62
     0
 10
-0.5
 20
-0.5
 30
0.0
 11
0.5
 21
0.5
 31
0.0
  0
ENDBLK
  5
2A
  8
0
  0
BLOCK
  8
0
  2
*D1
 70
     1
 10
0.0
 20
0.0
 30
0.0
  3
*D1
  1

  0
LINE
  5
34
  8
1
 10
43.344505471067571
 20
1.140751622873039
 30
0.0
 11
58.536589180774627
 21
1.1407516228730341
 31
0.0
  0
LINE
  5
35
  8
1
 10
43.344505471067571
 20
5.1407516228730392
 30
0.0
 11
58.536589180774627
 21
5.1407516228730339
 31
0.0
  0
LINE
  5
36
  8
1
 10
57.536589180774619
 20
1.140751622873035
 30
0.0
 11
57.536589180774619
 21
-0.8592483771269645
 31
0.0
  0
LINE
  5
37
  8
1
 10
57.536589180774619
 20
5.1407516228730348
 30
0.0
 11
57.536589180774619
 21
7.1407516228730348
 31
0.0
  0
LINE
  5
38
  8
1
 10
57.536589180774619
 20
1.140751622873035
 30
0.0
 11
57.536589180774619
 21
5.1407516228730348
 31
0.0
  0
INSERT
  5
39
  8
1
  2
_OBLIQUE
 10
57.536589180774619
 20
1.140751622873035
 30
0.0
 41
2.0
 42
2.0
 43
2.0
 50
90.0
  0
INSERT
  5
3A
  8
1
  2
_OBLIQUE
 10
57.536589180774619
 20
5.1407516228730348
 30
0.0
 41
2.0
 42
2.0
 43
2.0
 50
270.0
  0
TEXT
  5
3B
  8
0
 10
56.536589180774627
 20
1.868241390949442
 30
0.0
 40
3.5
  1
4
 50
90.0
  7
BESCHLAG
  0
POINT
  5
3C
  8
DEFPOINTS
 62
     0
 10
41.344505471067578
 20
1.1407516228730401
 30
0.0
  0
POINT
  5
3E
  8
DEFPOINTS
 62
     0
 10
41.344505471067578
 20
5.1407516228730401
 30
0.0
  0
POINT
  5
3F
  8
DEFPOINTS
 62
     0
 10
57.536589180774619
 20
5.1407516228730348
 30
0.0
  0
ENDBLK
  5
41
  8
0
  0
ENDSEC
  0
SECTION
  2
ENTITIES
  0
POLYLINE
  5
2D
  8
6
 66
     1
 10
0.0
 20
0.0
 30
0.0
 70
     1
  0
VERTEX
  5
86
  8
6
 10
41.344505471067578
 20
5.1407516228730401
 30
0.0
 42
-0.3024607647129676
  0
VERTEX
  5
87
  8
6
 10
41.771824830327652
 20
4.7932217683232921
 30
0.0
  0
VERTEX
  5
88
  8
6
 10
42.833798833636813
 20
4.7932217683232921
 30
0.0
 42
-0.7884679532228139
  0
VERTEX
  5
89
  8
6
 10
43.808498848292622
 20
4.717678398171528
 30
0.0
 42
-0.1569239607677707
  0
VERTEX
  5
8A
  8
6
 10
44.96173302366401
 20
4.1146889033839207
 30
0.0
 42
-0.3899462342289519
  0
VERTEX
  5
8B
  8
6
 10
44.590188963677058
 20
1.963222469475113
 30
0.0
 42
0.761585498718294
  0
VERTEX
  5
8C
  8
6
 10
44.276547857915382
 20
1.6979070870779649
 30
0.0
 42
0.0036149930128621
  0
VERTEX
  5
8D
  8
6
 10
44.277668155285703
 20
1.1395685750342179
 30
0.0
 42
-0.2284589398870318
  0
VERTEX
  5
8E
  8
6
 10
44.05458648153126
 20
0.7331238836914054
 30
0.0
 42
0.2160702341294518
  0
VERTEX
  5
8F
  8
6
 10
42.102496898482279
 20
-3.8498636539570721
 30
0.0
  0
VERTEX
  5
90
  8
6
 10
42.501278270931827
 20
-3.2941399299554628
 30
0.0
  0
VERTEX
  5
91
  8
6
 10
42.851722580395062
 20
-3.2941399299554628
 30
0.0
  0
VERTEX
  5
92
  8
6
 10
42.851722580395062
 20
-4.4901539831753317
 30
0.0
  0
VERTEX
  5
93
  8
6
 10
42.042075433630323
 20
-5.7344917773000361
 30
0.0
  0
VERTEX
  5
94
  8
6
 10
42.042075433630323
 20
-6.8459391666706324
 30
0.0
  0
VERTEX
  5
95
  8
6
 10
42.525446841316132
 20
-6.0002727040746322
 30
0.0
  0
VERTEX
  5
96
  8
6
 10
42.924228291547927
 20
-6.0002727040746322
 30
0.0
  0
VERTEX
  5
97
  8
6
 10
42.924228291547927
 20
-7.075477229133412
 30
0.0
  0
VERTEX
  5
98
  8
6
 10
42.078328328097989
 20
-8.5372721504950277
 30
0.0
  0
VERTEX
  5
99
  8
6
 10
42.078328328097989
 20
-9.3829386130908006
 30
0.0
  0
VERTEX
  5
9A
  8
6
 10
42.597952552468989
 20
-8.5614340209476723
 30
0.0
  0
VERTEX
  5
9B
  8
6
 10
42.996733924918537
 20
-8.5614340209476723
 30
0.0
  0
VERTEX
  5
9C
  8
6
 10
42.996733924918537
 20
-9.5883147464685408
 30
0.0
  0
VERTEX
  5
9D
  8
6
 10
42.53753116539928
 20
-10.397738403385571
 30
0.0
 42
-0.0565018707574314
  0
VERTEX
  5
9E
  8
6
 10
42.247508320788029
 20
-10.796409734914731
 30
0.0
  0
VERTEX
  5
9F
  8
6
 10
41.833624129493273
 20
-10.99592921448561
 30
0.0
 42
-0.0742784248711683
  0
VERTEX
  5
A0
  8
6
 10
41.344505471067578
 20
-11.068393996895111
 30
0.0
 42
-0.0742784248711683
  0
VERTEX
  5
A1
  8
6
 10
40.855386812642102
 20
-10.99592921448561
 30
0.0
  0
VERTEX
  5
A2
  8
6
 10
40.441502621347347
 20
-10.796409734914731
 30
0.0
 42
-0.0565018707574314
  0
VERTEX
  5
A3
  8
6
 10
40.151479776736089
 20
-10.397738403385571
 30
0.0
  0
VERTEX
  5
A4
  8
6
 10
39.692277017216831
 20
-9.5883147464685408
 30
0.0
  0
VERTEX
  5
A5
  8
6
 10
39.692277017216831
 20
-8.5614340209476723
 30
0.0
  0
VERTEX
  5
A6
  8
6
 10
40.091058389666387
 20
-8.5614340209476723
 30
0.0
  0
VERTEX
  5
A7
  8
6
 10
40.610682614037387
 20
-9.3829386130908006
 30
0.0
  0
VERTEX
  5
A8
  8
6
 10
40.610682614037387
 20
-8.5372721504950277
 30
0.0
  0
VERTEX
  5
A9
  8
6
 10
39.764782650587442
 20
-7.075477229133412
 30
0.0
  0
VERTEX
  5
AA
  8
6
 10
39.764782650587442
 20
-6.0002727040746322
 30
0.0
  0
VERTEX
  5
AB
  8
6
 10
40.163564100819251
 20
-6.0002727040746322
 30
0.0
  0
VERTEX
  5
AC
  8
6
 10
40.646935508505059
 20
-6.8459391666706324
 30
0.0
  0
VERTEX
  5
AD
  8
6
 10
40.646935508505059
 20
-5.7344917773000361
 30
0.0
  0
VERTEX
  5
AE
  8
6
 10
39.83728836174032
 20
-4.4901539831753317
 30
0.0
  0
VERTEX
  5
AF
  8
6
 10
39.83728836174032
 20
-3.2941399299554628
 30
0.0
  0
VERTEX
  5
B0
  8
6
 10
40.187732671203541
 20
-3.2941399299554628
 30
0.0
  0
VERTEX
  5
B1
  8
6
 10
40.586514043653089
 20
-3.8498636539570721
 30
0.0
 42
0.2160702341294518
  0
VERTEX
  5
B2
  8
6
 10
38.634424460604123
 20
0.7331238836914054
 30
0.0
 42
-0.2284589398870318
  0
VERTEX
  5
B3
  8
6
 10
38.411342786849673
 20
1.1395685750342179
 30
0.0
 42
0.0036149930128621
  0
VERTEX
  5
B4
  8
6
 10
38.412463084220001
 20
1.6979070870779649
 30
0.0
 42
0.761585498718294
  0
VERTEX
  5
B5
  8
6
 10
38.098821978458318
 20
1.963222469475113
 30
0.0
 42
-0.3899462342289519
  0
VERTEX
  5
B6
  8
6
 10
37.727277918471373
 20
4.1146889033839207
 30
0.0
 42
-0.1569239607677707
  0
VERTEX
  5
B7
  8
6
 10
38.880512093842754
 20
4.717678398171528
 30
0.0
 42
-0.7884679532228139
  0
VERTEX
  5
B8
  8
6
 10
39.855212108498563
 20
4.7932217683232921
 30
0.0
  0
VERTEX
  5
B9
  8
6
 10
40.917186111807723
 20
4.7932217683232921
 30
0.0
 42
-0.3024607647129676
  0
SEQEND
  5
BA
  8
6
  0
POINT
  5
2F
  8
5
 10
41.344505471067578
 20
1.1407516228730401
 30
0.0
  0
DIMENSION
  5
31
  8
1
  2
*D1
 10
57.536589180774619
 20
5.1407516228730348
 30
0.0
 11
54.786589180774627
 21
3.1407516228730441
 31
0.0
 13
41.344505471067578
 23
1.1407516228730401
 33
0.0
 14
41.344505471067578
 24
5.1407516228730401
 34
0.0
 50
90.0
  0
TEXT
  5
42
  8
1
 10
60.734922715843602
 20
0.81249454600038
 30
0.0
 40
1.5
  1
(3-5)
 50
90.0
  0
TEXT
  5
43
  8
1
 10
32.082385047536029
 20
11.77462743962792
 30
0.0
 40
2.4999999499999999
  1
Hebgo 671
  0
POLYLINE
  5
44
  8
5
 66
     1
 10
0.0
 20
0.0
 30
0.0
  0
VERTEX
  5
BB
  8
5
 10
30.594505471067581
 20
20.14075162287304
 30
0.0
  0
VERTEX
  5
BC
  8
5
 10
30.594505471067581
 20
5.1407516228730401
 30
0.0
  0
VERTEX
  5
BD
  8
5
 10
53.398043230951309
 20
5.1407516228730401
 30
0.0
  0
SEQEND
  5
BE
  8
5
  0
POLYLINE
  5
45
  8
6
 66
     1
 10
0.0
 20
0.0
 30
0.0
 70
     1
  0
VERTEX
  5
BF
  8
6
 10
41.344505471067578
 20
4.2497585717933362
 30
0.0
 42
-0.0157308567205744
  0
VERTEX
  5
C0
  8
6
 10
43.379051756298622
 20
4.1002171573852593
 30
0.0
 42
-0.2019184668305195
  0
VERTEX
  5
C1
  8
6
 10
44.392353766365432
 20
3.4731081250220082
 30
0.0
 42
-1.230855700697399
  0
VERTEX
  5
C2
  8
6
 10
44.41648002321994
 20
3.1643775046288729
 30
0.0
 42
-0.2453681090869982
  0
VERTEX
  5
C3
  8
6
 10
43.075061168834957
 20
1.9005115310592371
 30
0.0
 42
-0.110412369229241
  0
VERTEX
  5
C4
  8
6
 10
41.344505471067578
 20
1.553189627091569
 30
0.0
 42
-0.110412369229241
  0
VERTEX
  5
C5
  8
6
 10
39.613949773300192
 20
1.9005115310592371
 30
0.0
 42
-0.2453681090869982
  0
VERTEX
  5
C6
  8
6
 10
38.272530918915429
 20
3.1643775046288729
 30
0.0
 42
-1.230855700697399
  0
VERTEX
  5
C7
  8
6
 10
38.296657175769951
 20
3.4731081250220082
 30
0.0
 42
-0.2019184668305195
  0
VERTEX
  5
C8
  8
6
 10
39.30995918583676
 20
4.1002171573852593
 30
0.0
 42
-0.0157308567205744
  0
SEQEND
  5
C9
  8
6
  0
ENDSEC
  0
EOF
