  0
SECTION
  2
HEADER
  9
$ACADVER
  1
AC1009
  9
$INSBASE
 10
0.0
 20
0.0
 30
0.0
  9
$EXTMIN
 10
-16.021727661161769
 20
-12.88604650516765
 30
-0.0000000000112498
  9
$EXTMAX
 10
15.518189018497081
 20
17.303467340887892
 30
0.0000000000002956
  9
$LIMMIN
 10
-150.0
 20
-150.0
  9
$LIMMAX
 10
150.0
 20
150.0
  9
$ORTHOMODE
 70
     0
  9
$REGENMODE
 70
     1
  9
$FILLMODE
 70
     1
  9
$QTEXTMODE
 70
     0
  9
$MIRRTEXT
 70
     0
  9
$DRAGMODE
 70
     2
  9
$LTSCALE
 40
2.0
  9
$OSMODE
 70
   111
  9
$ATTMODE
 70
     1
  9
$TEXTSIZE
 40
3.5
  9
$TRACEWID
 40
1.0
  9
$TEXTSTYLE
  7
BESCHLAG
  9
$CLAYER
  8
0
  9
$CELTYPE
  6
BYLAYER
  9
$CECOLOR
 62
   256
  9
$DIMSCALE
 40
1.0
  9
$DIMASZ
 40
2.0
  9
$DIMEXO
 40
2.0
  9
$DIMDLI
 40
0.0
  9
$DIMRND
 40
0.0
  9
$DIMDLE
 40
1.0
  9
$DIMEXE
 40
1.0
  9
$DIMTP
 40
0.0
  9
$DIMTM
 40
0.0
  9
$DIMTXT
 40
3.5
  9
$DIMCEN
 40
0.0
  9
$DIMTSZ
 40
0.0
  9
$DIMTOL
 70
     0
  9
$DIMLIM
 70
     0
  9
$DIMTIH
 70
     0
  9
$DIMTOH
 70
     0
  9
$DIMSE1
 70
     0
  9
$DIMSE2
 70
     0
  9
$DIMTAD
 70
     1
  9
$DIMZIN
 70
     8
  9
$DIMBLK
  1

  9
$DIMASO
 70
     1
  9
$DIMSHO
 70
     1
  9
$DIMPOST
  1

  9
$DIMAPOST
  1

  9
$DIMALT
 70
     0
  9
$DIMALTD
 70
     2
  9
$DIMALTF
 40
0.039370078740157
  9
$DIMLFAC
 40
1.0
  9
$DIMTOFL
 70
     1
  9
$DIMTVP
 40
0.0
  9
$DIMTIX
 70
     1
  9
$DIMSOXD
 70
     0
  9
$DIMSAH
 70
     1
  9
$DIMBLK1
  1
OBLIQUE
  9
$DIMBLK2
  1
OBLIQUE
  9
$DIMSTYLE
  2
OPO-SSTRICH
  9
$DIMCLRD
 70
   256
  9
$DIMCLRE
 70
   256
  9
$DIMCLRT
 70
   256
  9
$DIMTFAC
 40
0.7114285714285716
  9
$DIMGAP
 40
1.0
  9
$LUNITS
 70
     2
  9
$LUPREC
 70
     1
  9
$SKETCHINC
 40
1.0
  9
$FILLETRAD
 40
0.0
  9
$AUNITS
 70
     0
  9
$AUPREC
 70
     1
  9
$MENU
  1
D:\ACL_CGWG\CGTAB13
  9
$ELEVATION
 40
0.0
  9
$PELEVATION
 40
0.0
  9
$THICKNESS
 40
0.0
  9
$LIMCHECK
 70
     0
  9
$BLIPMODE
 70
     0
  9
$CHAMFERA
 40
1.0
  9
$CHAMFERB
 40
1.0
  9
$SKPOLY
 70
     0
  9
$TDCREATE
 40
2451739.8583454392
  9
$TDUPDATE
 40
2452086.7379655088
  9
$TDINDWG
 40
0.0009249537
  9
$TDUSRTIMER
 40
0.0009249537
  9
$USRTIMER
 70
     1
  9
$ANGBASE
 50
0.0
  9
$ANGDIR
 70
     0
  9
$PDMODE
 70
    35
  9
$PDSIZE
 40
5.0
  9
$PLINEWID
 40
0.0
  9
$COORDS
 70
     1
  9
$SPLFRAME
 70
     0
  9
$SPLINETYPE
 70
     6
  9
$SPLINESEGS
 70
     8
  9
$ATTDIA
 70
     1
  9
$ATTREQ
 70
     1
  9
$HANDLING
 70
-16383
  9
$HANDSEED
  5
40E
  9
$SURFTAB1
 70
    12
  9
$SURFTAB2
 70
    12
  9
$SURFTYPE
 70
     6
  9
$SURFU
 70
    12
  9
$SURFV
 70
    12
  9
$UCSNAME
  2

  9
$UCSORG
 10
0.0
 20
0.0
 30
0.0
  9
$UCSXDIR
 10
1.0
 20
0.0
 30
0.0
  9
$UCSYDIR
 10
0.0
 20
1.0
 30
0.0
  9
$PUCSNAME
  2

  9
$PUCSORG
 10
0.0
 20
0.0
 30
0.0
  9
$PUCSXDIR
 10
1.0
 20
0.0
 30
0.0
  9
$PUCSYDIR
 10
0.0
 20
1.0
 30
0.0
  9
$USERI1
 70
     0
  9
$USERI2
 70
     0
  9
$USERI3
 70
     0
  9
$USERI4
 70
     0
  9
$USERI5
 70
     0
  9
$USERR1
 40
0.0
  9
$USERR2
 40
0.0
  9
$USERR3
 40
0.0
  9
$USERR4
 40
0.0
  9
$USERR5
 40
0.0
  9
$WORLDVIEW
 70
     1
  9
$SHADEDGE
 70
     3
  9
$SHADEDIF
 70
    70
  9
$TILEMODE
 70
     1
  9
$MAXACTVP
 70
    48
  9
$PLIMCHECK
 70
     0
  9
$PEXTMIN
 10
1.0000000000000000E+020
 20
1.0000000000000000E+020
 30
1.0000000000000000E+020
  9
$PEXTMAX
 10
-1.0000000000000000E+020
 20
-1.0000000000000000E+020
 30
-1.0000000000000000E+020
  9
$PLIMMIN
 10
0.0
 20
0.0
  9
$PLIMMAX
 10
420.0
 20
297.0
  9
$UNITMODE
 70
     0
  9
$VISRETAIN
 70
     1
  9
$PLINEGEN
 70
     0
  9
$PSLTSCALE
 70
     1
  0
ENDSEC
  0
SECTION
  2
TABLES
  0
TABLE
  2
VPORT
 70
     2
  0
VPORT
  2
*ACTIVE
 70
     0
 10
0.0
 20
0.0
 11
1.0
 21
1.0
 12
-0.2517693213323451
 22
2.208710417860118
 13
0.0
 23
0.0
 14
0.5
 24
0.5
 15
10.0
 25
10.0
 16
0.0
 26
0.0
 36
1.0
 17
0.0
 27
0.0
 37
0.0
 40
30.434624919230551
 41
1.6070460704607039
 42
50.0
 43
0.0
 44
0.0
 50
0.0
 51
0.0
 71
     0
 72
   800
 73
     1
 74
     1
 75
     0
 76
     0
 77
     0
 78
     0
  0
ENDTAB
  0
TABLE
  2
LTYPE
 70
     2
  0
LTYPE
  2
CONTINUOUS
 70
     0
  3
_______________________________________________
 72
    65
 73
     2
 40
1.0
 49
1.0
 49
0.0
  0
LTYPE
  2
STRICHPUNKT
 70
     0
  3
__ . __ . __ . __ . __ . __ . __ . __ . __ . __
 72
    65
 73
     4
 40
1.0
 49
0.5
 49
-0.25
 49
0.0
 49
-0.25
  0
ENDTAB
  0
TABLE
  2
LAYER
 70
     7
  0
LAYER
  2
0
 70
     0
 62
    30
  6
CONTINUOUS
  0
LAYER
  2
1
 70
     0
 62
     2
  6
CONTINUOUS
  0
LAYER
  2
2
 70
     0
 62
     9
  6
CONTINUOUS
  0
LAYER
  2
4
 70
     1
 62
     4
  6
CONTINUOUS
  0
LAYER
  2
5
 70
     0
 62
     1
  6
CONTINUOUS
  0
LAYER
  2
6
 70
     0
 62
     3
  6
CONTINUOUS
  0
LAYER
  2
DEFPOINTS
 70
     0
 62
     7
  6
CONTINUOUS
  0
ENDTAB
  0
TABLE
  2
STYLE
 70
     2
  0
STYLE
  2
STANDARD
 70
     0
 40
0.0
 41
1.0
 50
0.0
 71
     0
 42
2.5
  3
txt
  4

  0
STYLE
  2
BESCHLAG
 70
     0
 40
0.0
 41
1.0
 50
0.0
 71
     0
 42
3.5
  3
txt
  4

  0
ENDTAB
  0
TABLE
  2
VIEW
 70
     0
  0
ENDTAB
  0
TABLE
  2
UCS
 70
     0
  0
ENDTAB
  0
TABLE
  2
APPID
 70
     1
  0
APPID
  2
ACAD
 70
     0
  0
ENDTAB
  0
TABLE
  2
DIMSTYLE
 70
     1
  0
DIMSTYLE
  2
OPO-SSTRICH
 70
     0
  3

  4

  5

  6
OBLIQUE
  7
OBLIQUE
 40
1.0
 41
2.0
 42
2.0
 43
0.0
 44
1.0
 45
0.0
 46
1.0
 47
0.0
 48
0.0
140
3.5
141
0.0
142
0.0
143
0.039370078740157
144
1.0
145
0.0
146
0.7114285714285716
147
1.0
 71
     0
 72
     0
 73
     0
 74
     0
 75
     0
 76
     0
 77
     1
 78
     8
170
     0
171
     2
172
     1
173
     1
174
     1
175
     0
176
   256
177
   256
178
   256
  0
ENDTAB
  0
ENDSEC
  0
SECTION
  2
BLOCKS
  0
BLOCK
  8
0
  2
$MODEL_SPACE
 70
     0
 10
0.0
 20
0.0
 30
0.0
  3
$MODEL_SPACE
  1

  0
ENDBLK
  5
1C
  8
0
  0
BLOCK
 67
     1
  8
0
  2
$PAPER_SPACE
 70
     0
 10
0.0
 20
0.0
 30
0.0
  3
$PAPER_SPACE
  1

  0
ENDBLK
  5
19
 67
     1
  8
0
  0
BLOCK
  8
0
  2
_OBLIQUE
 70
     0
 10
0.0
 20
0.0
 30
0.0
  3
_OBLIQUE
  1

  0
LINE
  5
204
  8
0
 62
     0
 10
-0.5
 20
-0.5
 30
0.0
 11
0.5
 21
0.5
 31
0.0
  0
ENDBLK
  5
206
  8
0
  0
BLOCK
  8
0
  2
NULLPUNKT
 70
     0
 10
0.0
 20
0.0
 30
0.0
  3
NULLPUNKT
  1

  0
SOLID
  5
254
  8
5
 10
0.0
 20
0.0
 30
0.0
 11
2.0
 21
0.0
 31
0.0
 12
0.0
 22
-2.0
 32
0.0
 13
0.0
 23
-2.0
 33
0.0
  0
SOLID
  5
255
  8
5
 10
0.0
 20
0.0
 30
0.0
 11
-2.0
 21
0.0
 31
0.0
 12
0.0
 22
2.0
 32
0.0
 13
0.0
 23
2.0
 33
0.0
  0
POLYLINE
  5
256
  8
5
 66
     1
 10
0.0
 20
0.0
 30
0.0
  0
VERTEX
  5
3C7
  8
5
 10
0.0
 20
2.0
 30
0.0
  0
VERTEX
  5
3C8
  8
5
 10
0.0
 20
-2.0
 30
0.0
  0
SEQEND
  5
3C9
  8
5
  0
POLYLINE
  5
257
  8
5
 66
     1
 10
0.0
 20
0.0
 30
0.0
  0
VERTEX
  5
3CA
  8
5
 10
-2.0
 20
0.0
 30
0.0
  0
VERTEX
  5
3CB
  8
5
 10
2.0
 20
0.0
 30
0.0
  0
SEQEND
  5
3CC
  8
5
  0
CIRCLE
  5
258
  8
5
 10
0.0
 20
0.0
 30
0.0
 40
2.0
  0
ENDBLK
  5
25A
  8
0
  0
BLOCK
  8
0
  2
*X2
 70
     1
 10
0.0
 20
0.0
 30
0.0
  3
*X2
  1

  0
LINE
  5
292
  8
0
 62
     0
 10
344.8515511272397
 20
-513.12359039413309
 30
0.0
 11
346.0705218432426
 21
-511.9046196781303
 31
0.0
  0
LINE
  5
293
  8
0
 62
     0
 10
344.48396885621941
 20
-512.07695910278005
 30
0.0
 11
345.98396885621952
 21
-510.57695910278022
 31
0.0
  0
LINE
  5
294
  8
0
 62
     0
 10
347.1210194682705
 20
-509.43990849072918
 30
0.0
 11
347.86724069158691
 21
-508.69368726741283
 31
0.0
  0
LINE
  5
295
  8
0
 62
     0
 10
344.48396885621941
 20
-510.66274554040712
 30
0.0
 11
347.13064760496508
 21
-508.0160667916615
 31
0.0
  0
LINE
  5
296
  8
0
 62
     0
 10
344.48396885621941
 20
-509.2485319780339
 30
0.0
 11
345.79259234352429
 21
-507.93990849072918
 31
0.0
  0
LINE
  5
297
  8
0
 62
     0
 10
345.76544893646133
 20
-513.62390614728463
 30
0.0
 11
347.44944659301672
 21
-511.93990849072918
 31
0.0
  0
LINE
  5
298
  8
0
 62
     0
 10
347.16366015538898
 20
-513.63990849073002
 30
0.0
 11
348.86366015538971
 21
-511.93990849072918
 31
0.0
  0
LINE
  5
299
  8
0
 62
     0
 10
348.57787371776197
 20
-513.63990849073002
 30
0.0
 11
350.27787371776282
 21
-511.93990849072918
 31
0.0
  0
LINE
  5
29A
  8
0
 62
     0
 10
349.99208728013519
 20
-513.63990849073002
 30
0.0
 11
350.53396885621947
 21
-513.09802691464574
 31
0.0
  0
ENDBLK
  5
29C
  8
0
  0
BLOCK
  8
0
  2
*X3
 70
     1
 10
0.0
 20
0.0
 30
0.0
  3
*X3
  1

  0
LINE
  5
29E
  8
0
 62
     0
 10
353.43396885621939
 20
-513.02645403939198
 30
0.0
 11
354.52051440488208
 21
-511.93990849072918
 31
0.0
  0
LINE
  5
29F
  8
0
 62
     0
 10
357.02051440488219
 20
-509.43990849072918
 30
0.0
 11
358.44719606333888
 21
-508.01322683227249
 31
0.0
  0
LINE
  5
2A0
  8
0
 62
     0
 10
355.996635997537
 20
-509.04957333570133
 30
0.0
 11
357.09363370119149
 21
-507.95257563204672
 31
0.0
  0
LINE
  5
2A1
  8
0
 62
     0
 10
354.23472796725451
 20
-513.63990849073002
 30
0.0
 11
355.93472796725518
 21
-511.93990849072918
 31
0.0
  0
LINE
  5
2A2
  8
0
 62
     0
 10
357.98396885621969
 20
-509.89066760176468
 30
0.0
 11
359.2457865700232
 21
-508.62884988796122
 31
0.0
  0
LINE
  5
2A3
  8
0
 62
     0
 10
355.64894152962762
 20
-513.63990849073002
 30
0.0
 11
357.34894152962829
 21
-511.93990849072918
 31
0.0
  0
LINE
  5
2A4
  8
0
 62
     0
 10
357.98396885621969
 20
-511.30488116413778
 30
0.0
 11
359.48396885621969
 21
-509.8048811641379
 31
0.0
  0
LINE
  5
2A5
  8
0
 62
     0
 10
357.06315509200073
 20
-513.63990849073002
 30
0.0
 11
359.48396885621969
 21
-511.21909472651089
 31
0.0
  0
LINE
  5
2A6
  8
0
 62
     0
 10
358.47736865437378
 20
-513.63990849073002
 30
0.0
 11
359.48396885621969
 21
-512.63330828888411
 31
0.0
  0
ENDBLK
  5
2A8
  8
0
  0
BLOCK
  8
0
  2
*D4
 70
     1
 10
0.0
 20
0.0
 30
0.0
  3
*D4
  1

  0
LINE
  5
2EF
  8
1
 10
-15.00000000000022
 20
-2.0
 30
0.0
 11
-15.00000000000022
 21
-12.865804540900401
 31
0.0
  0
LINE
  5
2F0
  8
1
 10
-0.0000000000000001
 20
-2.0
 30
0.0
 11
-0.0000000000000008
 21
-12.865804540900401
 31
0.0
  0
LINE
  5
2F1
  8
1
 10
-16.00000000000022
 20
-11.86580454090039
 30
0.0
 11
0.9999999999999992
 21
-11.86580454090039
 31
0.0
  0
INSERT
  5
2F2
  8
1
  2
_OBLIQUE
 10
-15.00000000000022
 20
-11.86580454090039
 30
0.0
 41
2.0
 42
2.0
 43
2.0
 50
180.0
  0
INSERT
  5
2F3
  8
1
  2
_OBLIQUE
 10
-0.0000000000000007
 20
-11.86580454090039
 30
0.0
 41
2.0
 42
2.0
 43
2.0
  0
TEXT
  5
2F4
  8
0
 10
-10.38761937244213
 20
-10.798955973369701
 30
0.0
 40
3.5
  1
15
  7
BESCHLAG
  0
POINT
  5
2F5
  8
DEFPOINTS
 62
     0
 10
-15.00000000000022
 20
0.0
 30
0.0
  0
POINT
  5
2F6
  8
DEFPOINTS
 62
     0
 10
0.0
 20
0.0
 30
0.0
  0
POINT
  5
2F7
  8
DEFPOINTS
 62
     0
 10
-0.0000000000000007
 20
-11.86580454090039
 30
0.0
  0
ENDBLK
  5
2D6
  8
0
  0
BLOCK
  8
0
  2
*D5
 70
     1
 10
0.0
 20
0.0
 30
0.0
  3
*D5
  1

  0
LINE
  5
2F8
  8
1
 10
2.0
 20
-0.0000000000000006
 30
0.0
 11
12.29620473446993
 21
-0.0000000000000035
 31
0.0
  0
LINE
  5
2F9
  8
1
 10
2.0
 20
5.7000000000008413
 30
0.0
 11
12.29620473446993
 21
5.7000000000008368
 31
0.0
  0
LINE
  5
2FA
  8
1
 10
11.29620473446993
 20
-1.0000000000000031
 30
0.0
 11
11.29620473446993
 21
6.7000000000008368
 31
0.0
  0
INSERT
  5
2FB
  8
1
  2
_OBLIQUE
 10
11.29620473446993
 20
-0.0000000000000032
 30
0.0
 41
2.0
 42
2.0
 43
2.0
 50
270.0
  0
INSERT
  5
2FC
  8
1
  2
_OBLIQUE
 10
11.29620473446993
 20
5.7000000000008368
 30
0.0
 41
2.0
 42
2.0
 43
2.0
 50
90.0
  0
TEXT
  5
2FD
  8
0
 10
10.22935616693924
 20
1.5106412005461209
 30
0.0
 40
3.5
  1
6
 50
90.0
  7
BESCHLAG
  0
POINT
  5
2FE
  8
DEFPOINTS
 62
     0
 10
0.0
 20
0.0
 30
0.0
  0
POINT
  5
2FF
  8
DEFPOINTS
 62
     0
 10
0.0
 20
5.7000000000008413
 30
0.0
  0
POINT
  5
300
  8
DEFPOINTS
 62
     0
 10
11.29620473446993
 20
5.7000000000008368
 30
0.0
  0
ENDBLK
  5
2E2
  8
0
  0
BLOCK
  8
0
  2
*D6
 70
     1
 10
0.0
 20
0.0
 30
0.0
  3
*D6
  1

  0
LINE
  5
301
  8
1
 10
2.0
 20
5.7000000000008413
 30
0.0
 11
12.29620473446993
 21
5.7000000000008368
 31
0.0
  0
LINE
  5
302
  8
1
 10
-9.0000000000002274
 20
11.00000000000011
 30
0.0
 11
12.29620473446993
 21
11.000000000000099
 31
0.0
  0
LINE
  5
303
  8
1
 10
11.29620473446993
 20
4.7000000000008368
 30
0.0
 11
11.29620473446994
 21
12.000000000000099
 31
0.0
  0
INSERT
  5
304
  8
1
  2
_OBLIQUE
 10
11.29620473446993
 20
5.7000000000008368
 30
0.0
 41
2.0
 42
2.0
 43
2.0
 50
270.0
  0
INSERT
  5
305
  8
1
  2
_OBLIQUE
 10
11.29620473446993
 20
11.000000000000099
 30
0.0
 41
2.0
 42
2.0
 43
2.0
 50
90.0
  0
TEXT
  5
306
  8
0
 10
10.23651851346038
 20
6.9867667121423578
 30
0.0
 40
3.5
  1
5
 50
90.0
  7
BESCHLAG
  0
POINT
  5
307
  8
DEFPOINTS
 62
     0
 10
0.0
 20
5.7000000000008413
 30
0.0
  0
POINT
  5
308
  8
DEFPOINTS
 62
     0
 10
-11.00000000000022
 20
11.00000000000011
 30
0.0
  0
POINT
  5
309
  8
DEFPOINTS
 62
     0
 10
11.29620473446993
 20
11.000000000000099
 30
0.0
  0
ENDBLK
  5
2EE
  8
0
  0
ENDSEC
  0
SECTION
  2
ENTITIES
  0
INSERT
  5
25B
  8
5
  2
NULLPUNKT
 10
0.0
 20
0.0
 30
0.0
  0
INSERT
  5
2BD
  8
2
  2
*X3
 10
-359.48396885621958
 20
513.63990849073002
 30
0.0
1001
ACAD
1000
HATCH
1002
{
1070
    16
1000
_U,I
1040
1.0
1040
0.7853981633974483
1070
     0
1002
}
  0
INSERT
  5
2BE
  8
2
  2
*X2
 10
-359.48396885621958
 20
513.63990849073002
 30
0.0
1001
ACAD
1000
HATCH
1002
{
1070
    16
1000
_U,I
1040
1.0
1040
0.7853981633974483
1070
     0
1002
}
  0
LINE
  5
2BF
  8
6
 10
-8.9500000000002728
 20
1.700000000000272
 30
0.0
 11
-8.9500000000002728
 21
0.0
 31
0.0
  0
LINE
  5
2C0
  8
6
 10
-6.050000000000181
 20
1.700000000000272
 30
0.0
 11
-6.050000000000181
 21
0.0
 31
0.0
  0
TEXT
  5
2C1
  8
1
 10
-8.3750349186645963
 20
14.12344098272626
 30
0.0
 40
2.5
  1
Hebgo 125/620
  0
POLYLINE
  5
2C2
  8
5
 66
     1
 10
0.0
 20
0.0
 30
0.0
  0
VERTEX
  5
3CD
  8
5
 10
-11.00000000000022
 20
16.00000000000011
 30
0.0
  0
VERTEX
  5
3CE
  8
5
 10
-11.00000000000022
 20
11.00000000000011
 30
0.0
  0
VERTEX
  5
3CF
  8
5
 10
5.0
 20
11.00000000000011
 30
0.0
  0
SEQEND
  5
3D0
  8
5
  0
LINE
  5
2C3
  8
6
  6
STRICHPUNKT
 10
-7.5000000000002274
 20
1.947026752870328
 30
0.0
 11
-7.5000000000002274
 21
-5.274608168001464
 31
0.0
  0
POLYLINE
  5
2C4
  8
4
 66
     1
 10
0.0
 20
0.0
 30
0.0
 70
     1
  0
VERTEX
  5
3D1
  8
4
 10
-15.00000000000022
 20
0.0
 30
0.0
  0
VERTEX
  5
3D2
  8
4
 10
-15.00000000000022
 20
5.7000000000008413
 30
0.0
  0
VERTEX
  5
3D3
  8
4
 10
0.0
 20
5.7000000000008413
 30
0.0
  0
VERTEX
  5
3D4
  8
4
 10
0.0
 20
0.0
 30
0.0
  0
SEQEND
  5
3D5
  8
4
  0
POLYLINE
  5
2C5
  8
6
 66
     1
 10
0.0
 20
0.0
 30
0.0
 70
     1
  0
VERTEX
  5
3D6
  8
6
 10
-11.50000000000022
 20
4.3500000000004766
 30
0.0
  0
VERTEX
  5
3D7
  8
6
 10
-11.50000000000022
 20
4.4100000000008768
 30
0.0
 42
0.4142135623730951
  0
VERTEX
  5
3D8
  8
6
 10
-12.790000000000189
 20
5.7000000000008413
 30
0.0
  0
VERTEX
  5
3D9
  8
6
 10
-14.799999999999489
 20
5.7000000000008413
 30
0.0
 42
0.4142135623730951
  0
VERTEX
  5
3DA
  8
6
 10
-15.00000000000022
 20
5.5000000000001128
 30
0.0
  0
VERTEX
  5
3DB
  8
6
 10
-15.00000000000022
 20
1.5
 30
0.0
 42
0.4142135623730951
  0
VERTEX
  5
3DC
  8
6
 10
-13.50000000000022
 20
0.0
 30
0.0
  0
VERTEX
  5
3DD
  8
6
 10
-0.2999999999997271
 20
0.0
 30
0.0
 42
0.4142135623730951
  0
VERTEX
  5
3DE
  8
6
 10
0.0
 20
0.2999999999999545
 30
0.0
  0
VERTEX
  5
3DF
  8
6
 10
0.0
 20
4.2000000000008413
 30
0.0
 42
0.4142135623730951
  0
VERTEX
  5
3E0
  8
6
 10
-1.5
 20
5.7000000000008413
 30
0.0
  0
VERTEX
  5
3E1
  8
6
 10
-2.2100000000002629
 20
5.7000000000008413
 30
0.0
 42
0.4142135623730951
  0
VERTEX
  5
3E2
  8
6
 10
-3.5000000000002269
 20
4.4100000000008768
 30
0.0
  0
VERTEX
  5
3E3
  8
6
 10
-3.5000000000002269
 20
4.3500000000004766
 30
0.0
 42
0.4142135623731992
  0
VERTEX
  5
3E4
  8
6
 10
-3.3499999999996808
 20
4.2000000000008413
 30
0.0
  0
VERTEX
  5
3E5
  8
6
 10
-1.6999999999998181
 20
4.2000000000008413
 30
0.0
 42
-0.4142135623730953
  0
VERTEX
  5
3E6
  8
6
 10
-1.5
 20
4.0000000000001128
 30
0.0
  0
VERTEX
  5
3E7
  8
6
 10
-1.5
 20
1.9000000000006589
 30
0.0
 42
-0.4142135623730951
  0
VERTEX
  5
3E8
  8
6
 10
-1.6999999999998181
 20
1.7000000000008411
 30
0.0
  0
VERTEX
  5
3E9
  8
6
 10
-13.2999999999995
 20
1.7000000000008411
 30
0.0
 42
-0.4142135623730951
  0
VERTEX
  5
3EA
  8
6
 10
-13.50000000000022
 20
1.9000000000006589
 30
0.0
  0
VERTEX
  5
3EB
  8
6
 10
-13.50000000000022
 20
4.0000000000001128
 30
0.0
 42
-0.4142135623730951
  0
VERTEX
  5
3EC
  8
6
 10
-13.2999999999995
 20
4.2000000000008413
 30
0.0
  0
VERTEX
  5
3ED
  8
6
 10
-11.64999999999986
 20
4.2000000000008413
 30
0.0
 42
0.414213562373069
  0
SEQEND
  5
3EE
  8
6
  0
DIMENSION
  5
2C6
  8
1
  2
*D4
 10
-0.0000000000000007
 20
-11.86580454090039
 30
0.0
 11
-7.5000000000001128
 21
-9.0787990838744772
 31
0.0
 70
     0
 13
-15.00000000000022
 23
0.0
 33
0.0
 14
0.0
 24
0.0
 34
0.0
  0
POLYLINE
  5
2C7
  8
5
 66
     1
 10
0.0
 20
0.0
 30
0.0
  0
VERTEX
  5
3EF
  8
5
 10
-15.00000000000022
 20
16.00000000000011
 30
0.0
  0
VERTEX
  5
3F0
  8
5
 10
-15.00000000000022
 20
0.0
 30
0.0
  0
VERTEX
  5
3F1
  8
5
 10
0.0
 20
0.0
 30
0.0
  0
VERTEX
  5
3F2
  8
5
 10
0.0
 20
-5.0
 30
0.0
  0
SEQEND
  5
3F3
  8
5
  0
POLYLINE
  5
2C8
  8
6
 66
     1
 10
0.0
 20
0.0
 30
0.0
 70
     1
  0
VERTEX
  5
3F4
  8
6
 10
-10.20195309298219
 20
1.868568730953597
 30
0.0
 42
-0.6415838065530063
  0
VERTEX
  5
3F5
  8
6
 10
-4.8263809518969083
 20
2.251145035512649
 30
0.0
 42
0.5157822426877657
  0
VERTEX
  5
3F6
  8
6
 10
-3.516024211924786
 20
2.1646397704524811
 30
0.0
  0
VERTEX
  5
3F7
  8
6
 10
-2.7190266892555419
 20
3.5312963554030139
 30
0.0
  0
VERTEX
  5
3F8
  8
6
 10
-2.7190266892555419
 20
4.2000000000008413
 30
0.0
  0
VERTEX
  5
3F9
  8
6
 10
-3.5531696802715942
 20
4.2000000000008413
 30
0.0
  0
VERTEX
  5
3FA
  8
6
 10
-3.5531696802715942
 20
5.6376330714753058
 30
0.0
 42
0.2542712822039416
  0
VERTEX
  5
3FB
  8
6
 10
-2.6054916409977968
 20
7.1927430807301098
 30
0.0
 42
0.239805045364585
  0
VERTEX
  5
3FC
  8
6
 10
-3.632734583643241
 20
9.4129315439512311
 30
0.0
 42
0.0952903634792644
  0
VERTEX
  5
3FD
  8
6
 10
-5.7549601102161878
 20
10.343631370707611
 30
0.0
 42
0.0700993617324612
  0
VERTEX
  5
3FE
  8
6
 10
-11.478914080478489
 20
10.498574362428711
 30
0.0
 42
0.9870930961173433
  0
VERTEX
  5
3FF
  8
6
 10
-11.381081443081481
 20
9.8432764234661363
 30
0.0
 42
-0.0371998225987245
  0
VERTEX
  5
400
  8
6
 10
-6.9167218668787882
 20
9.7006199189728477
 30
0.0
 42
-0.0985543060514419
  0
VERTEX
  5
401
  8
6
 10
-4.963258829985306
 20
8.9141226825391868
 30
0.0
 42
-0.1211139390109317
  0
VERTEX
  5
402
  8
6
 10
-4.1965731169418632
 20
7.9760618005353763
 30
0.0
 42
-0.2870603126370058
  0
VERTEX
  5
403
  8
6
 10
-4.4740954763490199
 20
7.006912290670356
 30
0.0
 42
-0.1002807908351088
  0
VERTEX
  5
404
  8
6
 10
-5.7263535905537992
 20
6.5472256986457751
 30
0.0
 42
-0.0333497571445928
  0
VERTEX
  5
405
  8
6
 10
-10.350604460072409
 20
6.0856420716201001
 30
0.0
 42
0.4545352424188308
  0
VERTEX
  5
406
  8
6
 10
-11.05365154921423
 20
5.5836041512037582
 30
0.0
  0
VERTEX
  5
407
  8
6
 10
-11.62566311989962
 20
4.1020842178517114
 30
0.0
 42
-0.3791917245757989
  0
VERTEX
  5
408
  8
6
 10
-12.300708467925
 20
3.9358145834229381
 30
0.0
  0
VERTEX
  5
409
  8
6
 10
-13.01168283893889
 20
4.1957958123279013
 30
0.0
  0
VERTEX
  5
40A
  8
6
 10
-13.407489594140539
 20
3.7836108879668009
 30
0.0
  0
VERTEX
  5
40B
  8
6
 10
-13.41738475329953
 20
3.6055470415120681
 30
0.0
  0
VERTEX
  5
40C
  8
6
 10
-12.38010438660535
 20
1.868568730953597
 30
0.0
  0
SEQEND
  5
40D
  8
6
  0
DIMENSION
  5
2C9
  8
1
  2
*D5
 10
11.29620473446993
 20
5.7000000000008368
 30
0.0
 11
8.5091992774440151
 21
2.8500000000004189
 31
0.0
 70
     0
  1
6
 13
0.0
 23
0.0
 33
0.0
 14
0.0
 24
5.7000000000008413
 34
0.0
 50
90.0
  0
DIMENSION
  5
2CA
  8
1
  2
*D6
 10
11.29620473446993
 20
11.000000000000099
 30
0.0
 11
8.5163616239651621
 21
8.3500000000004757
 31
0.0
 70
     0
  1
5
 13
0.0
 23
5.7000000000008413
 33
0.0
 14
-11.00000000000022
 24
11.00000000000011
 34
0.0
 50
90.0
  0
VIEWPORT
  5
22
 67
     1
  8
0
 10
210.0
 20
170.2366863905325
 30
0.0
 40
420.0
 41
340.47337278106511
 68
     1
 69
     1
1001
ACAD
1000
MVIEW
1002
{
1070
    16
1010
0.0
1020
0.0
1030
0.0
1010
0.0
1020
0.0
1030
1.0
1040
0.0
1040
340.47337278106511
1040
210.0
1040
170.2366863905325
1040
50.0
1040
0.0
1040
0.0
1070
     0
1070
   100
1070
     1
1070
     1
1070
     0
1070
     0
1070
     0
1070
     0
1040
0.0
1040
0.0
1040
0.0
1040
5.0
1040
5.0
1040
10.0
1040
10.0
1070
     0
1002
{
1002
}
1002
}
  0
ENDSEC
  0
EOF
